Téléversements par Jessica Ceresa

Aller à la navigation Aller à la recherche

Cette page spéciale permet de lister tous les fichiers importés.

Liste de fichiers
Première pagePage précédentePage suivanteDernière page
Date Nom Vignette Taille Description Versions
5 février 2018 à 00:01 Stitched-anchor1FR.jpg (fichier) 59 Kio   1
4 février 2018 à 23:42 Stitch-era-auto-digitizingFR.png (fichier) 167 Kio   1
4 février 2018 à 23:38 Stitch-era-convert-vector-graphicsFR.png (fichier) 55 Kio   1
4 février 2018 à 23:35 Stitch-era-17-art-to-stitch-1FR.png (fichier) 112 Kio   1
4 février 2018 à 23:15 Stitch-era-17-ungroup-anchorFR.png (fichier) 212 Kio   1
4 février 2018 à 23:02 Stitch-era-17-hoop-selectionFR.png (fichier) 231 Kio   1
4 février 2018 à 22:45 Inkscape-copy-anchorFR.png.png (fichier) 236 Kio   1
13 novembre 2017 à 19:18 Lams-logo-embroidered-take-2.jpg (fichier) 94 Kio   1
13 novembre 2017 à 19:18 Lams-logo-embroidered-take-1.jpg (fichier) 423 Kio   1
13 novembre 2017 à 19:18 Lams-lamb-embroidery-4a.jpg (fichier) 138 Kio   1
13 novembre 2017 à 19:17 Lams-dolly-lrg.gif (fichier) 11 Kio   1
9 novembre 2017 à 00:49 Logo AEMALTT Broderie Jessica Ceresa.jpg (fichier) 281 Kio   1
9 novembre 2017 à 00:47 Logo AEMALTT Jessica Ceresa.jpg (fichier) 224 Kio   1
9 novembre 2017 à 00:40 Logo AEMALTT svg.png (fichier) 15 Kio   1
9 novembre 2017 à 00:38 Logo aemaltt jessica ceresa.png (fichier) 20 Kio   1
2 novembre 2017 à 13:58 Legend of Grimrock screenshot.jpg (fichier) 104 Kio   1
10 juin 2017 à 19:48 Editeur renpy.png (fichier) 42 Kio   1
10 juin 2017 à 19:11 Theme couleur renpy.png (fichier) 37 Kio   1
10 juin 2017 à 19:08 Resolution renpy.png (fichier) 32 Kio   1
10 juin 2017 à 19:03 Nom projet renpy.png (fichier) 26 Kio   1
10 juin 2017 à 19:02 Launcher renpy.png (fichier) 44 Kio   1
5 juin 2017 à 19:24 Googledocs-exemple4.png (fichier) 51 Kio   1
5 juin 2017 à 19:23 Googledocs-exemple3.png (fichier) 120 Kio   1
5 juin 2017 à 19:21 Googledocs-exempl2.png (fichier) 61 Kio   1
5 juin 2017 à 19:17 Googledocs-exemple1.png (fichier) 77 Kio   1
1 juin 2017 à 14:21 Video theorie conditions apprentissage jessica.webm (fichier)
Erreur lors de la création de la vignette : '/usr/bin/ffmpeg' -nostdin -threads 1 -ss 14380 -y -i '/data/fmediawiki/images/b/b8/Video_theorie_conditions_apprentissage_jessica.webm' -ss 1 -s 1280x720 -f mjpeg -an -vframes 1 '/tmp/transform_fe90df4d2f66.jpg' 2>&1 wgMaxShellMemory: 5000000 ffmpeg version 4.2.7-0ubuntu0.1 Copyright (c) 2000-2022 the FFmpeg developers built with gcc 9 (Ubuntu 9.4.0-1ubuntu1~20.04.1) configuration: --prefix=/usr --extra-version=0ubuntu0.1 --toolchain=hardened --libdir=/usr/lib/x86_64-linux-gnu --incdir=/usr/include/x86_64-linux-gnu --arch=amd64 --enable-gpl --disable-stripping --enable-avresample --disable-filter=resample --enable-avisynth --enable-gnutls --enable-ladspa --enable-libaom --enable-libass --enable-libbluray --enable-libbs2b --enable-libcaca --enable-libcdio --enable-libcodec2 --enable-libflite --enable-libfontconfig --enable-libfreetype --enable-libfribidi --enable-libgme --enable-libgsm --enable-libjack --enable-libmp3lame --enable-libmysofa --enable-libopenjpeg --enable-libopenmpt --enable-libopus --enable-libpulse --enable-librsvg --enable-librubberband --enable-libshine --enable-libsnappy --enable-libsoxr --enable-libspeex --enable-libssh --enable-libtheora --enable-libtwolame --enable-libvidstab --enable-libvorbis --enable-libvpx --enable-libwavpack --enable-libwebp --enable-libx265 --enable-libxml2 --enable-libxvid --enable-libzmq --enable-libzvbi --enable-lv2 --enable-omx --enable-openal --enable-opencl --enable-opengl --enable-sdl2 --enable-libdc1394 --enable-libdrm --enable-libiec61883 --enable-nvenc --enable-chromaprint --enable-frei0r --enable-libx264 --enable-shared libavutil 56. 31.100 / 56. 31.100 libavcodec 58. 54.100 / 58. 54.100 libavformat 58. 29.100 / 58. 29.100 libavdevice 58. 8.100 / 58. 8.100 libavfilter 7. 57.100 / 7. 57.100 libavresample 4. 0. 0 / 4. 0. 0 libswscale 5. 5.100 / 5. 5.100 libswresample 3. 5.100 / 3. 5.100 libpostproc 55. 5.100 / 55. 5.100 Input #0, matroska,webm, from '/data/fmediawiki/images/b/b8/Video_theorie_conditions_apprentissage_jessica.webm': Metadata: encoder : Lavf56.40.101 Duration: 07:59:23.96, start: 28308.678000, bitrate: 6 kb/s Stream #0:0: Audio: vorbis, 44100 Hz, stereo, fltp (default) Stream #0:1: Video: vp8, yuv420p(progressive), 1280x720, SAR 1:1 DAR 16:9, 29.97 fps, 29.97 tbr, 1k tbn, 1k tbc (default) Stream mapping: Stream #0:1 -> #0:0 (vp8 (native) -> mjpeg (native)) [swscaler @ 0x55c1e25d3100] deprecated pixel format used, make sure you did set range correctly Output #0, mjpeg, to '/tmp/transform_fe90df4d2f66.jpg': Metadata: encoder : Lavf58.29.100 Stream #0:0: Video: mjpeg, yuvj420p(pc), 1280x720 [SAR 1:1 DAR 16:9], q=2-31, 200 kb/s, 29.97 fps, 29.97 tbn, 29.97 tbc (default) Metadata: encoder : Lavc58.54.100 mjpeg Side data: cpb: bitrate max/min/avg: 0/0/200000 buffer size: 0 vbv_delay: -1 frame= 0 fps=0.0 q=0.0 Lsize= 0kB time=00:00:00.00 bitrate=N/A speed= 0x video:0kB audio:0kB subtitle:0kB other streams:0kB global headers:0kB muxing overhead: unknown Output file is empty, nothing was encoded (check -ss / -t / -frames parameters if used)
22,13 Mio Ma première vidéographie pour la théorie des conditions d'apprentissage. 1
1 juin 2017 à 14:20 Videographie theorie conditions apprentissage jessica.webm (fichier)
Erreur lors de la création de la vignette : '/usr/bin/ffmpeg' -nostdin -threads 1 -ss 14380 -y -i '/data/fmediawiki/images/1/1b/Videographie_theorie_conditions_apprentissage_jessica.webm' -ss 1 -s 1280x720 -f mjpeg -an -vframes 1 '/tmp/transform_d9dc074b846d.jpg' 2>&1 wgMaxShellMemory: 5000000 ffmpeg version 4.2.7-0ubuntu0.1 Copyright (c) 2000-2022 the FFmpeg developers built with gcc 9 (Ubuntu 9.4.0-1ubuntu1~20.04.1) configuration: --prefix=/usr --extra-version=0ubuntu0.1 --toolchain=hardened --libdir=/usr/lib/x86_64-linux-gnu --incdir=/usr/include/x86_64-linux-gnu --arch=amd64 --enable-gpl --disable-stripping --enable-avresample --disable-filter=resample --enable-avisynth --enable-gnutls --enable-ladspa --enable-libaom --enable-libass --enable-libbluray --enable-libbs2b --enable-libcaca --enable-libcdio --enable-libcodec2 --enable-libflite --enable-libfontconfig --enable-libfreetype --enable-libfribidi --enable-libgme --enable-libgsm --enable-libjack --enable-libmp3lame --enable-libmysofa --enable-libopenjpeg --enable-libopenmpt --enable-libopus --enable-libpulse --enable-librsvg --enable-librubberband --enable-libshine --enable-libsnappy --enable-libsoxr --enable-libspeex --enable-libssh --enable-libtheora --enable-libtwolame --enable-libvidstab --enable-libvorbis --enable-libvpx --enable-libwavpack --enable-libwebp --enable-libx265 --enable-libxml2 --enable-libxvid --enable-libzmq --enable-libzvbi --enable-lv2 --enable-omx --enable-openal --enable-opencl --enable-opengl --enable-sdl2 --enable-libdc1394 --enable-libdrm --enable-libiec61883 --enable-nvenc --enable-chromaprint --enable-frei0r --enable-libx264 --enable-shared libavutil 56. 31.100 / 56. 31.100 libavcodec 58. 54.100 / 58. 54.100 libavformat 58. 29.100 / 58. 29.100 libavdevice 58. 8.100 / 58. 8.100 libavfilter 7. 57.100 / 7. 57.100 libavresample 4. 0. 0 / 4. 0. 0 libswscale 5. 5.100 / 5. 5.100 libswresample 3. 5.100 / 3. 5.100 libpostproc 55. 5.100 / 55. 5.100 Input #0, matroska,webm, from '/data/fmediawiki/images/1/1b/Videographie_theorie_conditions_apprentissage_jessica.webm': Metadata: encoder : Lavf56.40.101 Duration: 07:59:23.96, start: 28308.678000, bitrate: 6 kb/s Stream #0:0: Audio: vorbis, 44100 Hz, stereo, fltp (default) Stream #0:1: Video: vp8, yuv420p(progressive), 1280x720, SAR 1:1 DAR 16:9, 29.97 fps, 29.97 tbr, 1k tbn, 1k tbc (default) Stream mapping: Stream #0:1 -> #0:0 (vp8 (native) -> mjpeg (native)) [swscaler @ 0x560ae6403100] deprecated pixel format used, make sure you did set range correctly Output #0, mjpeg, to '/tmp/transform_d9dc074b846d.jpg': Metadata: encoder : Lavf58.29.100 Stream #0:0: Video: mjpeg, yuvj420p(pc), 1280x720 [SAR 1:1 DAR 16:9], q=2-31, 200 kb/s, 29.97 fps, 29.97 tbn, 29.97 tbc (default) Metadata: encoder : Lavc58.54.100 mjpeg Side data: cpb: bitrate max/min/avg: 0/0/200000 buffer size: 0 vbv_delay: -1 frame= 0 fps=0.0 q=0.0 Lsize= 0kB time=00:00:00.00 bitrate=N/A speed= 0x video:0kB audio:0kB subtitle:0kB other streams:0kB global headers:0kB muxing overhead: unknown Output file is empty, nothing was encoded (check -ss / -t / -frames parameters if used)
22,13 Mio Ma première vidéographie sur la théorie des conditions d'apprentissage. 1
1 juin 2017 à 03:43 Théorie conditions apprentissage carte 3 jessica.jpg (fichier) 1,49 Mio Ma 3ème carte pour ma production sur la théorie des conditions d'apprentissage. 2
1 juin 2017 à 03:41 Théorie des conditions d'apprentissage3.jpg (fichier) 1,49 Mio Ma 3ème carte pour ma production sur la théorie des conditions d'apprentissage. 1
21 mai 2017 à 21:41 Théorie conditions apprentissage carte 2 jessica.jpg (fichier) 1,28 Mio Seconde carte conceptuelle sur la théorie des conditions d'apprentissage 1
7 mai 2017 à 04:03 HSG-egalaxy.png (fichier) 30 Kio   1
4 mai 2017 à 16:08 Théorie conditions apprentissage.jpg (fichier) 1,48 Mio   1
4 mai 2017 à 16:03 Théorie conditions apprentissage carte.jpg (fichier) 1,46 Mio   1
10 février 2017 à 03:22 Compréhension de texte final.jpg (fichier) 91 Kio   1
8 février 2017 à 01:56 Carte conceptuelle comprehension texte 2.jpg (fichier) 92 Kio   1
6 février 2017 à 12:25 Photo puzzle alphabétique.jpg (fichier) 77 Kio   1
6 février 2017 à 11:07 Photo puzzle.jpg (fichier) 42 Kio   1
27 janvier 2017 à 18:40 Carte conceptuelle inferences compréhension texte.jpg (fichier) 98 Kio Carte conceptuelle sur les inférences dans la compréhension de texte 1
27 janvier 2017 à 18:39 Carte conceptuelle inferences comprehension texte.jpg (fichier) 775 Kio Carte conceptuelle sur les inférences dans la compréhension de texte 1
10 novembre 2016 à 10:40 Jessica conseil.svg (fichier) 14 Kio   1
10 novembre 2016 à 10:40 Jessica compliment.svg (fichier) 17 Kio   1
10 novembre 2016 à 10:38 Jessica action.svg (fichier) 8 Kio   1
10 novembre 2016 à 00:47 Puzzle de correspondance.jpg (fichier) 14 Kio   1
8 novembre 2016 à 17:46 Sequence.jpg (fichier) 26 Kio   1
8 novembre 2016 à 17:45 Probleme interface.jpg (fichier) 69 Kio   1
8 novembre 2016 à 17:44 Inventaire.jpg (fichier) 42 Kio   1
8 novembre 2016 à 17:44 Description.jpg (fichier) 29 Kio   1
8 novembre 2016 à 17:43 Contrôles.jpg (fichier) 52 Kio   1
8 novembre 2016 à 17:40 Eléments de décor intéractifs.jpg (fichier) 92 Kio   1
8 novembre 2016 à 17:38 Points de vie.jpg (fichier) 111 Kio   1
Première pagePage précédentePage suivanteDernière page